#TITLE:Sentimental;
#SUBTITLE:- Midori no Hibi Opening;
#ARTIST:CooRie;
#TITLETRANSLIT:;
#SUBTITLETRANSLIT:;
#ARTISTTRANSLIT:;
#CREDIT:Xion Steel;
#BANNER:Sentimental.png;
#BACKGROUND:Sentimental bg.png;
#LYRICSPATH:Midori no Hibi - Sentimental.lrc;
#CDTITLE:SS credit logo.png;
#MUSIC:Midori no Hibi - Sentimental.mp3;
#OFFSET:-0.611;
#SAMPLESTART:56.540;
#SAMPLELENGTH:12.800;
#SELECTABLE:YES;
#BPMS:0.000=150.000;
#STOPS:;
#BGCHANGES:7.188=Midori no Hibi - Sentimental.avi=1.000=0=0=1,
212.000=Midori no Hibi - Sentimental bg.png=1.000=0=0=1,
99999=-nosongbg-=1.000=0=0=0 // don't automatically add -songbackground-
;
// cache tags:
#FIRSTBEAT:0.000;
#LASTBEAT:215.500;
#SONGFILENAME:songs/Otaku's Dream 3rd Anime Mix/[Xion Steel] Sentimental - Midori no Hibi OP/Midori no Hibi - Sentimental.sm;
#HASMUSIC:1;
#HASBANNER:1;
#MUSICLENGTH:94.148;
// end cache tags

//---------------dance-single - Blank----------------
#NOTES:
     dance-single:
     Blank:
     Easy:
     4:
     0.328,0.343,0.117,0.064,0.000,199.000,11.000,6.000,0.000,0.000:








0000
0000
0000
0000
,
1000
0100
0010
0001
0000
0000
0000
0000
,
0001
0010
0100
1000
0000
0000
0000
0000
,
0001
0010
0001
0010
0000
0000
0000
0000
,
2002
0000
0000
0000
0000
0000
0000
0000
0000
3003
1000
0000
0010
0000
0000
0000
,
0001
1000
0001
0010
,
0100
0000
1000
0010
0000
0000
0010
0000
,
0010
0000
0000
1000
0000
0000
0001
0000
,
0000
0010
0010
0000
0010
0010
0000
1000
,
0000
0010
0010
0000
0001
0000
0000
0000
,
0100
0010
0001
0100
,
1000
0001
1000
0010
,
1001
0010
0001
0001
,
1000
1000
0010
0010
,
0010
0010
1000
0001
,
0010
1000
0001
0001
,
0200
0000
0300
0010
0001
0000
1000
0000
,
1000
0100
0100
0010
,
0010
0001
0100
1000
,
0100
0010
1001
0100
,
0001
0000
0001
0000
0100
0000
0010
0100
,
0000
0010
0001
1000
,
0100
0001
0010
1000
,
0010
0010
0100
0100
,
0010
0000
0100
0000
0000
1000
1000
1000
,
0000
0010
0010
0010
0000
0100
0100
0100
,
0100
0000
1000
0100
,
0010
0010
0001
0010
,
0100
0000
0001
0000
0100
0000
1000
0110
,
0000
0000
0001
0000
0100
0000
0000
0010
,
0000
0000
0000
1000
0000
0000
0000
0001
,
0000
0000
0000
0100
0000
0000
0000
1001
,
0000
0010
0001
1000
,
0110
0000
0000
0110
0000
0000
0000
1001
,
0000
1001
1001
0010
,
0100
0000
1000
0000
1000
0000
0100
0001
,
0000
1000
1000
0100
,
0001
0001
0100
0100
,
0010
0000
0010
0000
0010
0000
0010
0001
,
0000
1000
1000
0010
,
0001
0000
0100
0010
0000
0000
1000
0000
,
1000
0100
0001
0100
,
1000
0000
0001
0000
0010
0010
0001
0000
,
0100
0000
0001
0000
1000
0000
0010
0001
,
0000
1000
0100
1000
,
0010
0001
1000
0010
,
1000
0001
1000
0001
0010
0100
1000
0002
,
0000
0000
0000
0000
0003
0010
0000
1000
,
0000
0000
0000
1000
0100
0000
0000
0000
,
1000
0000
0100
0001
0000
0000
0100
0000
,
0010
0000
1000
0001
,
1000
0000
0001
0000
1000
0000
0010
0100
,
2002
0000
0000
0000
,
0000
0000
0000
0000
0000
0000
0000
3003
;

//---------------dance-single - Blank----------------
#NOTES:
     dance-single:
     Blank:
     Medium:
     7:
     0.454,0.486,0.074,0.064,0.000,286.000,7.000,6.000,0.000,0.000:










1000
0100
0010
0100
,
1000
0001
1000
0100
0000
0100
0100
0000
,
0010
0001
1000
0001
0000
0001
0010
0000
,
1000
0100
0001
0100
0001
1000
0100
0000
,
1000
0100
1000
0010
0100
0001
0010
0001
,
1000
0000
0000
0100
0010
0100
0000
0100
,
0000
0001
1000
1000
0000
0000
1000
0100
,
0010
0000
0000
0101
0000
0000
1001
0000
,
0000
0001
0001
0000
0010
0010
0000
1000
,
0000
0001
0001
0000
0101
0110
0000
0000
,
1000
0001
0010
0001
0100
1000
0100
0001
,
0010
0100
0001
0010
1000
1000
0100
0001
,
0010
0100
0001
0100
0100
1000
0000
0001
,
0000
0100
0000
0001
0000
1001
0000
0000
,
0001
0010
0010
1000
0100
0010
0001
1100
,
0000
0001
0000
0010
0100
0010
0100
0010
,
0100
0010
0000
1000
1000
0000
0000
1000
,
0000
0010
0000
1000
0000
0010
0000
0000
,
1000
0100
0010
0001
0100
1000
0010
0001
,
0000
0010
0000
0100
0001
1000
0100
0001
,
0000
0000
0000
0100
0010
0000
0001
0010
,
0000
0001
0000
0000
0100
0010
0001
0001
,
0000
0100
0001
0100
1000
0100
0001
0100
,
0000
0000
0000
0010
0100
0010
0100
0000
,
1000
0000
0001
0000
0000
0100
0010
0001
,
0000
1000
0100
0001
0000
0100
0010
0001
,
0010
0000
0000
0000
0001
0100
1000
0100
,
0010
0100
0010
0010
0000
0100
0000
0001
,
0010
0000
0000
0000
1000
0100
0010
0001
,
0000
0010
1000
0010
0001
0010
0100
0001
,
0000
0010
1000
0001
0000
1000
0100
0001
,
0000
0100
0000
0001
0000
0100
0010
1000
,
0000
0010
0010
0000
0000
0000
0000
1000
,
0100
0010
0100
1000
0100
0010
0000
1000
,
0000
0100
0010
0100
0010
0100
0000
0000
,
0001
0100
0001
0001
0100
0001
0100
1000
,
0000
0001
0100
1000
0000
1000
0000
0000
,
0001
0100
0010
0001
0000
1000
1000
0010
,
0000
0010
0100
0001
0010
0000
1000
0100
,
0000
0100
0010
0001
1000
0100
0010
0001
,
0010
0100
1000
0001
0000
0100
0000
1000
,
0100
0000
0100
0000
0010
0000
1000
0001
,
0000
0100
0000
0010
0100
1000
0010
0000
,
0001
0100
0010
0001
0000
1000
0010
1000
,
0000
0100
0000
0010
0000
0100
0000
0001
,
0100
1000
0001
0100
0000
0001
0010
1000
,
0000
0010
0001
0100
1000
0010
0100
2000
,
0000
0000
0000
0000
0000
0000
0000
0000
0000
3000
0200
0000
0000
0300
0002
0000
,
0000
0000
0000
0000
0000
0003
0100
0000
0100
0000
0000
0000
0010
0000
0000
0000
,
0001
0000
0010
0100
0000
0010
0000
0001
,
0000
0100
0000
0001
0010
0000
0100
0000
,
0020
0000
0000
0000
0000
0000
0000
0000
0000
0030
0010
0000
1000
0000
2002
0000
,
0000
0000
0000
0000
,
0000
0000
0000
0000
0000
0000
0000
3003
;

//---------------dance-single - Blank----------------
#NOTES:
     dance-single:
     Blank:
     Hard:
     8:
     0.615,0.773,0.276,0.351,0.127,346.000,26.000,33.000,0.000,1.000:



1000
0000
0000
0010
0100
0000
0000
0100
0010
0000
0000
0010
0100
0000
0000
0100
,
0010
0000
0001
0000
1000
0000
0020
0000
0100
0000
1000
0000
0100
0000
1000
0030
,
2000
0000
0100
0000
0001
3000
0010
0000
2000
0000
3200
0000
0320
0000
0032
0000
,
2003
0000
0010
0000
0100
0000
3011
1000
0100
1000
0001
0010
0100
1000
0000
0000
,
1000
0100
0010
0100
0010
0100
0010
0100
0010
0000
0001
0000
0010
0000
0100
0000
,
0001
0000
0000
0000
0010
0000
0100
0010
0001
0000
0010
0000
0100
0000
1000
0000
,
0100
0000
1000
0000
1000
0000
0010
0000
0000
0000
1000
0000
0010
0100
0010
0100
,
0010
0000
0000
0000
0100
0000
0010
0000
0000
0000
0010
0001
0100
0000
0000
0000
,
0000
0001
0100
0000
1000
0001
0000
1000
,
0000
0000
0010
0000
1000
0000
0000
1000
0100
0000
0011
0000
1000
0000
0000
0000
,
0100
0001
1000
0010
1000
0001
0010
0001
,
0000
1000
0000
0001
0000
1000
0100
0010
,
0001
0010
0000
0100
0000
1001
0000
0010
,
0000
0100
0001
1000
0000
0010
0000
0000
,
1000
0100
0001
0010
0001
1000
0100
1000
,
0000
1000
0000
0010
0001
0100
0001
1000
,
0022
0000
0000
0000
0000
0033
0220
0330
2200
0000
0000
0000
0000
3300
0001
0000
,
0000
0110
0000
1000
0001
0010
0100
0000
,
0100
1000
0001
0010
0001
0100
1000
0001
,
0000
1000
0000
0100
0000
0010
0100
1000
,
0001
0010
0000
0010
0001
0000
0100
1000
,
0000
0000
0010
0000
0000
0000
0001
0000
1000
0100
0010
0001
0010
0000
0101
0000
,
0000
1000
0001
1100
0010
0010
1000
0110
,
0000
0000
1000
0000
0100
0000
0010
0000
0001
0010
0100
1000
0100
0000
0010
0000
,
0110
0000
1001
0000
0000
0100
0010
1000
,
0000
1000
0100
0010
0000
1000
0010
0100
,
1001
0000
0000
0100
0011
0100
1000
0001
,
1100
0000
0010
0100
0000
0000
0011
0000
,
1010
0000
0100
0010
1000
0001
0100
1001
,
0000
0000
1000
0000
0100
0000
0100
0000
0010
0000
1000
0100
0010
0000
1100
0000
,
0000
1000
0001
0110
0000
1000
0100
0011
,
0000
0001
0100
0001
1000
0100
0001
0010
,
1000
0000
0200
0000
0302
0000
0023
0000
0230
0000
2300
0000
3010
0100
0001
0000
,
0100
0001
1000
0010
0010
0100
0000
1000
,
0000
0100
0001
0100
0010
1000
0000
0000
,
0110
0001
0100
1000
0001
1000
0010
0002
,
0000
0003
2000
0000
3020
0000
2030
0000
3000
0000
0100
0000
0000
0000
0010
0000
,
0001
0100
0001
0010
1000
0010
0100
0001
,
0010
0001
0100
0001
1000
0100
0100
1000
,
0000
1000
0100
1000
0001
0100
0100
1000
,
0010
0000
0100
0000
0010
0000
0002
0000
0000
0003
0010
0000
0001
0000
0010
1000
,
0001
0000
0010
0000
1000
0000
0010
1001
,
0000
0001
0000
1000
0100
0010
1000
0000
,
0001
0010
0100
1000
0000
0010
0010
0001
,
0000
0100
0010
1000
0000
0010
0000
0100
,
0100
0100
0010
1000
0000
0001
1000
0020
,
0000
0030
0001
0000
0100
0000
0010
0000
0001
0000
0010
0000
0100
0000
2002
0000
,
0000
0000
0000
0000
3003
2000
0000
3020
,
0001
0100
0031
0100
0010
1000
0001
0000
,
0010
0001
0100
0001
1000
0100
0100
1000
,
0000
0010
0000
0001
1000
0001
1000
0001
,
2001
0000
0000
0000
0000
0000
0000
0000
0000
0000
0002
0003
0020
3030
0202
0000
,
0000
0000
0000
0000
,
0000
0000
0000
0000
0000
0000
0000
0303
;

//---------------dance-single - Blank----------------
#NOTES:
     dance-single:
     Blank:
     Challenge:
     10:
     0.913,1.000,1.000,0.754,0.271,398.000,133.000,71.000,0.000,14.000:

1010
0000
0000
0100
0010
0000
0000
0001
0010
0000
0000
0010
0100
0000
0000
0100
,
0011
1000
0010
2001
0010
0001
3010
0100
,
1200
0000
1000
0000
0001
0300
0012
2000
3200
0320
0230
2300
3200
0320
0230
2303
,
3201
0000
1000
0000
0010
0300
0021
1000
0100
1000
0100
0001
0100
1000
0001
0030
,
1000
0100
0010
0001
0010
0100
0010
0001
0010
0000
0001
0000
0010
0000
0100
0000
,
2002
0000
0000
0000
0000
3003
0100
0010
0001
0000
0010
0000
0100
0000
1010
0000
,
0100
0000
0010
0000
0010
0000
0110
0000
0000
0000
1000
0000
1000
0010
1000
0010
,
1000
0000
1200
0020
0330
0012
1103
0000
,
0000
0011
1100
0000
1010
0110
0000
1001
,
0000
0000
0110
0000
1001
0000
0000
0010
1000
0100
1001
0000
0000
0000
0000
0000
,
1001
0010
0101
0100
0010
0001
1100
0011
,
0000
0000
0100
0000
1010
0000
0001
0010
0000
0000
1000
0000
0110
0000
0010
0000
,
0001
0010
1001
0100
0000
0001
0110
1010
,
0000
0000
0100
0000
0011
0000
1000
0100
0000
0000
0010
0000
0101
0000
0000
0000
,
1000
0100
1001
0010
0001
1000
0101
1010
,
0000
0000
1000
0000
1100
0000
0010
0001
0000
0000
0000
0000
0011
0000
1000
0000
,
0010
0000
0100
0000
0001
0010
0100
2000
0010
0000
0001
0000
3010
0100
0010
0001
,
0000
0110
1001
1000
0101
1010
0100
0000
,
0101
1000
0101
0010
0001
0100
1010
0011
,
0000
0000
1000
0000
0011
0000
0100
0001
0000
0000
0010
0000
1100
0000
1000
0000
,
0001
0010
1001
0010
0001
0000
0100
1000
,
1100
0000
0011
0000
0100
0000
0001
0000
1000
0100
0010
0100
1000
0100
2001
0000
,
0000
0000
0100
0000
0010
3000
0012
0000
0000
0000
0100
0000
0010
0003
1200
0000
,
0000
0000
0000
0000
0000
0000
1000
0000
0000
0000
0000
0000
0001
0000
0000
0000
0000
0000
0010
0000
0000
0300
0000
0000
0001
0000
0010
0000
0100
0000
1000
0000
0000
0000
0000
0000
0001
0000
0000
0000
0000
0000
0010
0000
0000
0000
0000
0000
,
1001
0010
1001
0010
0000
0200
0320
2030
,
0000
3000
2000
0000
3200
0000
0320
0000
0000
0030
0101
0000
1100
0000
1100
0000
,
1001
0000
0000
0000
0000
0000
0100
0000
1002
0000
0100
0000
1000
0003
0001
0000
,
2100
0000
0000
0000
0010
3000
0100
0000
0000
0000
0010
0000
0102
0000
0100
0003
,
2010
0000
0000
3000
0100
0000
0010
0000
1000
0000
0001
0000
0100
0000
1002
0000
,
0000
0000
1000
0003
0110
0000
0110
0000
1001
0000
1100
0010
0001
1000
0110
0000
,
0000
1100
0101
0101
0000
1001
0110
0110
,
0000
0001
0110
0001
1000
0100
0101
0010
,
1000
0000
0200
0000
0320
0000
0032
0000
0203
0000
2300
0000
3020
0100
0031
0100
,
1001
0001
1000
0110
0010
0100
0000
2002
,
0000
3003
1010
0000
0110
0000
1001
0000
0011
0000
0101
0000
0000
0000
0001
1000
,
0110
0001
0101
1000
0101
1000
0011
0200
,
0000
0000
1300
0010
0101
0000
1000
0000
0110
0000
0100
0000
1010
0000
0010
0000
,
0101
0100
1001
0010
1000
0010
0100
0021
,
0000
0000
0002
0000
0203
0000
0302
0000
2033
0000
0000
3000
0011
0000
1100
0000
,
0000
0000
1000
0001
0110
0000
1000
0000
0011
0000
0100
0000
0101
0000
1000
0000
,
1010
0000
0100
0000
0110
0000
2002
0000
0000
3003
0010
0000
1001
0000
0001
0010
,
0001
0000
0000
0000
0021
0000
0000
0030
2100
0000
0001
3000
0010
0000
2002
0000
,
0000
3003
0002
0000
0000
0003
1000
0000
0101
0000
0010
0000
1100
0000
1000
0010
,
0101
0000
0010
0000
0110
0000
2000
0000
0000
3000
0010
0000
1010
0000
0012
0000
,
0000
0000
0100
0000
0010
0000
1000
0000
0000
0000
0010
0003
0110
0000
1000
0010
,
0101
0001
0110
1000
0000
0010
0101
1000
,
0000
0001
1100
0010
0101
0010
0110
2000
,
3020
0032
0203
0320
0032
0000
0003
0000
0010
0000
2200
0000
0000
3300
0120
0000
,
1000
0100
0031
0101
0110
1000
0101
0000
,
1010
0001
1100
1010
0000
0100
0101
1000
,
1100
0000
0011
0000
0000
0000
0001
0010
1000
0001
0010
1000
0100
0010
0000
0000
,
1002
0100
0010
1000
0100
2003
3020
0232
,
0000
0000
0000
0000
,
0000
0000
0000
0000
0000
0000
0000
0303
;

//---------------dance-single - Blank----------------
#NOTES:
     dance-single:
     Blank:
     Beginner:
     3:
     0.190,0.258,0.096,0.021,0.000,114.000,9.000,2.000,0.000,0.000:






0000
0000
0000
0000
,
1000
0000
0000
0000
,
0100
0000
0000
0000
,
0001
0000
0000
0000
,
1000
0000
0100
0000
,
1001
0000
0010
0000
,
0100
0000
0000
0000
,
0010
0000
0000
0000
,
0000
0100
0001
0100
,
1001
0010
0100
0000
,
0100
0000
0000
0000
,
1001
0000
0000
0000
,
0110
0000
0010
0000
,
1000
0000
0010
0000
,
0010
0000
1000
0000
,
0100
0000
1000
0000
,
0010
0000
0001
0000
,
0000
0000
0010
0000
,
1000
0000
1000
0000
,
0010
0000
0010
0000
,
0010
0000
0100
0000
,
1001
0000
0010
0000
,
0100
0000
1000
0000
,
0010
0000
0001
0000
,
0010
0000
1000
0100
,
0010
0010
0100
1000
,
0110
0000
1000
0000
,
0010
0000
1000
0000
,
0100
0000
0001
0000
,
0010
0000
0100
0000
,
1001
0100
0010
0001
,
1000
0000
0010
0000
,
1001
0000
0010
0000
,
1000
0000
0010
0000
,
0001
0001
0001
0000
,
1000
1000
1000
0000
,
0100
0100
0100
0000
,
0001
1000
0001
0000
,
0010
0100
0010
0000
,
0001
0000
1000
0000
,
0100
0001
1000
0000
,
0100
0100
0100
0000
,
0010
0010
0010
0001
,
0100
0000
0010
0000
,
0001
0000
0010
0000
,
0010
0010
0010
0000
,
1000
0100
1000
0000
,
0010
0100
0000
0000
,
0100
0100
0100
0000
,
0010
0000
0100
0000
,
0010
0000
1000
0000
,
0001
0000
0100
0000
,
2002
0000
0000
0000
,
0000
0000
0000
0000
0000
0000
0000
3003
;
